northernlitenorthernlite
» » Pete Shelley - Homosapien

Pete Shelley - Homosapien


Tracklist


1It's Hard Enough Knowing5:37
2Qu'est-Ce Que C'est Que Ca?4:21
3Maxine3:34
4Witness The Change / I Don't Know What Love Is8:23
5I Generate A Feeling3:13
6Witness The Change4:49
7Yesterday's Not Here4:09
8Just One Of Those Affairs2:58
9Homosapien4:35
10I Don't Know What It Is3:30
11Homosapien (Dub)9:00
12In Love With Somebody Else3:00
13Love In Vain3:11
14Keats Song1:58
15Pusher Man2:49
16Guess I Must Have Been In Love With Myself3:13

Versions


CategoryArtistTitle (Format)LabelCategoryCountryYear
ILPS 9676Pete Shelley Homosapien ‎(LP, Album)Genetic Records ILPS 9676UK1981
ILPS 19676Pete Shelley Homosapien ‎(LP)Island RecordsILPS 19676Italy1981
ZCI 9676Pete Shelley Homosapien ‎(Cass, Album)Genetic Records , Island RecordsZCI 9676Scandinavia1981
ATC 6602Pete Shelley Homosapien ‎(Cass, Album, Dol)AristaATC 6602Canada1981
AL 6602Pete Shelley Homosapien ‎(LP, Album, Mon)AristaAL 6602US1981

Credits


  • Art Direction [Original Art Direction]Paul Henry
  • GraphicsBruno Christian Tilley
  • Photography ByTrevor Rogers
  • Producer, EngineerMartin Rushent, Pete Shelley
  • Written-ByPete Shelley

Notes


Produced and engineered at Genetic Sound, England.
"Homosapien" was originally released in 1981.
Tracks 11 to 16 are extra tracks not found on the original release.

Barcodes


  • Barcode: 5060051331060
  • Matrix / Runout: de-luxe VARCD001 01
  • Mould SID Code: IFPI 04BA

Companies


  • Produced At – Genetic Sound
  • Engineered At – Genetic Sound
  • Published By – Complete Music Ltd.
  • Phonographic Copyright (p) – Pete Shelley
  • Copyright (c) – Pete Shelley
  • Distributed By – Active Media Distribution Ltd.
  • Licensed To – Western Songs Ltd.

Video


Info


Homosapien is the 1981 the second solo album by British musician Pete Shelley, following his work with the group Buzzcocks and the experimental instrumental album Sky Yen recorded in 1974 and eventually released in 1980. Homosapien saw a marked departure from the punk stylings of Buzzcocks' records, being heavily influenced by the programmed synthesizer sounds and drum machines of synthpop and featuring Shelly on acoustic guitar. The title track was released as a UK single and was banned by the BBC. Homosapien - Pete Shelley. Лента с персональными рекомендациями и музыкальными новинками, радио, подборки на любой вкус, удобное управление своей коллекцией. Homosapien was a super-sad event upon its release in 1981. Buzzcocks fans were aware that the songs were originally intended for the band's fourth LP even though some, such as the underground hit title track, had been composed before the band began - a new work that was set to continue the intriguing, strange, yet powerful and incredible direction the group had taken on side two of late-1979's A. From Buzzcocks frontman Pete Shelley's 1981 debut solo album 'Homosapien'. Band Name Pete Shelley. Album Name Homosapien. Type Album. 发布日期 1981. 出版公司 Island Records. Other productions from Pete Shelley. Album 1981 16 Songs. 2006 Pete Shelly. More By Pete Shelley. XL1. The Adored feat. Buzzcocks & Pete Shelley - EP. Sky Yen. Pete Shelley - Homosapien 1981. To favorites 0 Download album. Listen album. Synthpop New Wave. Pete Shelley. Country : UK Label : Grapevine CD Remastered Written By : Pete Shelley. Songs in album Pete Shelley - Homosapien 1981. Pete Shelley - Homosapien. Pete Shelley - Yesterday's Not Here. Pete Shelley - I Generate A Feeling. Pete Shelley - Keats Song. Pete Shelley - Qu'est-Ce Que C'est Que Зa. Pete Shelley - I Don't Know What It Is. Pete Shelley - Gues. Текст песни: I met a good man He had some good stuff He showed me a bag And he pulled out the by Martin Rushent & Pete Shelley. Album Homosapien. Homosapien Lyrics. I'm the shy boy You're the coy boy And you know we're Homosapien too I'm the cruiser You're the loser Me and you sir Homosapien too Homosuperior In my interior But from the skin out I'm homosapien too And you're homosapien too And I'm homosapien like you And we're homosapien too. And I think of your eyes in the dark and I see the star And I look to the light and I might wonder right where you are All the gods in the sky way up high see the world spinning 'round. Kiran Dass remembers Pete Shelley, co-founder and co-songwriter of the Buzzcocks, who died this week. After wed heard that co-founder of punk group the Buzzcocks Pete Shelley had died of a heart attack aged 63 at home in Estonia, one of my friends pointed out that one of the great things about t. RIP Pete Shelley: Punk, Lover, Homosapien. Kiran Dass Guest writer Obituary. After wed heard that co-founder of

Pete Shelley - Homosapien
Performer: Pete Shelley
Genre: Electro / Rock
Title: Homosapien
Country: UK
Released: 2006
Style: New Wave, Synth-pop
MP3 album: 1166 mb
FLAC album: 2830 mb
Source: CD, Album, Reissue, Remastered
№ Cat: VARCD001
Label: Western Songs

Vosho
foobar2000 1.3.17 / Dynamic Range Meter 1.1.1
log date: 2018-05-28 21:14:59

--------------------------------------------------------------------------------
Analyzed: Pete Shelley / Homosapien
--------------------------------------------------------------------------------

DR Peak RMS Duration Track
--------------------------------------------------------------------------------
DR11 -0.99 dB -13.40 dB 4:36 01-Homosapien
DR14 -2.41 dB -17.80 dB 4:09 02-Yesterday's Not Here
DR12 -2.60 dB -16.02 dB 3:12 03-I Generate A Feeling
DR13 -2.98 dB -18.63 dB 1:58 04-Keat's Song
DR11 -1.91 dB -14.37 dB 4:22 05-Qu'est-Ce Que C'est Que CA
DR12 -0.58 dB -15.61 dB 3:31 06-I Don't Know What It Is
DR10 -0.94 dB -13.80 dB 3:36 07-Guess I Must Have Been In Love With Myself
DR14 -1.66 dB -17.35 dB 2:50 08-Pusher Man
DR13 -1.44 dB -15.19 dB 2:58 09-Just One Of Those Affairs
DR12 -1.39 dB -16.41 dB 3:49 10-It's Hard Enough Knowing
DR11 -2.81 dB -16.38 dB 1:49 11-It's Hard Enough Knowing (pt. 2)
DR13 -2.98 dB -17.83 dB 8:25 12-Witness the Change/Maxine
DR13 -3.03 dB -17.44 dB 3:00 13-In Love With Somebody Else
DR13 -2.13 dB -17.00 dB 9:01 14-Homosapien (Dub)
DR13 -0.89 dB -16.96 dB 8:23 15-Witness The Change/I Don't Know What It Is (Dub)
DR11 -2.88 dB -15.19 dB 3:20 16-Love In Vain
--------------------------------------------------------------------------------

Number of tracks: 16
Official DR value: DR12

Samplerate: 44100 Hz
Channels: 2
Bitrate: 256 kbps
Codec: MP3
================================================================================
MOQ
Tracks 10 & 11 are both It's Hard Enough Knowing split up. Track 12 is Witness The Change/Maxine.