northernlitenorthernlite
» » Bob James - Espresso

Bob James - Espresso


Tracklist


1Ain’t Misbehavin’5:33
2Bulgogi6:00
3Submarine4:25
4Mojito Ride7:35
5Mister Magic6:20
6Promenade4:13
7Shadow Dance7:07
8One Afternoon3:30
9Topside5:50
10Il Boccalone4:04
11Boss Lady4:45

Versions


CategoryArtistTitle (Format)LabelCategoryCountryYear
EVSA572MBob James Espresso ‎(CD, Album, MQA)EvosoundEVSA572MHong Kong2018
EVLP023Bob James Espresso ‎(LP, Album)EvosoundEVLP023US2018
EVSA572MBob James Espresso ‎(11xFile, MP3, 264)EvosoundEVSA572MUS2018
noneBob James Espresso ‎(11xFile, DSF, Album, DSD)Evosoundnone2018

Credits


  • Arranged ByBob James
  • BassMichael Palazzolo
  • DrumsBilly Kilson
  • ProducerSonny Abelardo

Notes


P & C 2018 Evolution Ltd. under exclusive license from Tappan Zee Records
with Billy Kilson and Michael Palazzolo
Recorded 18 December 2017 at Stagg Studios, Van Nuys, CA
Producer: Sonny Abelardo
Arranged by: Bob James
Mastered by Steve Vavagiakis at Bang Zoom Mastering, Rockland, NY

Barcodes


  • Barcode: 4897012133675

Video


Info


071920 Bob James in Canton, OH at Gervasi Vineyard Buy Tickets. 071920 Bob James in Virtual at LIVE Stream Buy Tickets. Latest Tweet. Follow Bob James BobJamesMusic. Follow BobJamesMusic. Audio clip: Adobe Flash Player version 9 or above is required to play this audio clip. Unofficial Fan Video - Made from video clips of hiphop legends that sampled from Bob James 1974 song Nautilus. BobJames Jazz Espresso Video in album Bob James - Espresso 2018. Bob James - Bulgogi. Bob James - Shadow Dance. Bob James - Aint Misbehavin'. Bob James - One Afternoon. Bob James - Mister Magic. Bob James - Topside. Bob James - Il Boccalone. Bob James - Mojito Ride. Bob James - Promenade. Bob James - Boss Lady. Bob James - Submarine. Bob James: Bold Conceptions. Bob James. Quartette Humaine. Discover all of this album's music connections, watch videos, listen to music, discuss and free to Bob James Espresso Bulgogi, Shadow Dance and more. 10 tracks . is an American jazz keyboardist, arranger, and record producer. He founded the band Fourplay and wrote Angela, the theme song for the TV show Taxi. He is most famous for standards such as Nautilus, Westchester Lady, Heads, Night Crawler, Touchdown, Blue Lick, Sign Of the Times, Spunky, Marco Polo, Courtship and Just One Thing. Music from his first seven albums has often be. April 27 19:00 Vilniaus kongresų rūmai Bob James & Till Brönner up for an exclusive show at Kaunas Jazz Festival. Billy Kilson on drums and Michael Palazzolo on bass. submarine album fourplay bobjames espresso trio. Submarine from the forthcoming album 'Espresso' by the Bob James Trio feat. Subscribe to BobJamesVEVO ch

Bob James - Espresso
Performer: Bob James
Genre: Jazz
Title: Espresso
Country: Hong Kong
Released: 31 Aug 2018
MP3 album: 1821 mb
FLAC album: 1062 mb
Source: SACD, Album
№ Cat: EVSA571S
Label: Evosound

Samowar
--------------------------------------------------------------------------------
Analyzed: Bob James / Espresso
--------------------------------------------------------------------------------

DR Peak RMS Duration Track
--------------------------------------------------------------------------------
DR13 -7.58 dB -22.90 dB 6:04 01-Bulgogi
DR13 -7.71 dB -24.31 dB 7:05 02-Shadow Dance
DR14 -8.07 dB -24.35 dB 5:32 03-Ain't Misbehavin'
DR13 -8.58 dB -25.45 dB 3:32 04-One Afternoon
DR14 -7.26 dB -23.53 dB 6:17 05-Mister Magic
DR14 -7.52 dB -23.08 dB 5:07 06-Topside
DR13 -8.75 dB -24.73 dB 4:01 07-Il Boccalone
DR14 -7.40 dB -24.40 dB 7:38 08-Mojito Ride
DR11 -11.14 dB -24.63 dB 4:14 09-Promenade
DR12 -7.30 dB -21.32 dB 4:43 10-Boss Lady
DR13 -7.38 dB -22.75 dB 4:27 11-Submarine
--------------------------------------------------------------------------------

Number of tracks: 11
Official DR value: DR13

Samplerate: 2822400 Hz / PCM Samplerate: 176400 Hz
Channels: 2
Bits per sample: 1
Bitrate: 5645 kbps
Codec: DSD64